zduc.us - The Largest Bittorent System Login   |    Register
Latest Articles
Most searched
Hot torrents
Movie Torrents
View Torrent Info: Hunter Killer (2018) [720p] [YTS] [YIFY]
View Torrent Info: A Star Is Born (2018) [720p] [YTS] [YIFY]
View Torrent Info: The Girl in the Spider's Web (2018) [720p] [YTS] [YIFY]
View Torrent Info: King of Thieves (2018) [720p] [YTS] [YIFY]
View Torrent Info: Reign of the Supermen (2019) [720p] [YTS] [YIFY]
View Torrent Info: Suspiria (2018) [720p] [YTS] [YIFY]
View Torrent Info: Indivisible (2018) [720p] [YTS] [YIFY]
View Torrent Info: The Man Who Killed Don Quixote (2018) [720p] [YTS] [YIFY]
View Torrent Info: Norm of the North: Keys to the Kingdom (2018) [720p] [YTS] [YIFY]
View Torrent Info: Room in Rome (2010) [720p] [YTS] [YIFY]
Hot torrents
TV Torrents
View Torrent Info: The.Flash.2014.S05E10.HDTV.x264-SVA[eztv]
View Torrent Info: lethal.weapon.s03e12.web.x264-tbs[eztv]
View Torrent Info: The.Big.Bang.Theory.S12E13.HDTV.x264-KILLERS[eztv]
View Torrent Info: The.Good.Doctor.S02E11.HDTV.x264-KILLERS[eztv]
View Torrent Info: Vikings.S05E18.HDTV.x264-SVA[eztv]
View Torrent Info: gotham.s05e03.web.x264-tbs[eztv]
View Torrent Info: Supernatural.S14E10.HDTV.x264-SVA[eztv]
View Torrent Info: the.orville.s02e04.web.x264-tbs[eztv]
View Torrent Info: Modern.Family.S10E12.HDTV.x264-SVA[eztv]
View Torrent Info: the.passage.s01e01.web.x264-tbs[eztv]
zduc.us > Categories > Movies torrents > Movies 4K torrents


Browse Movies torrents

Keeping Up With The Joneses (2016) 2160p 4K UHD x265 10 bits DTSHD-MA 7.1 -Zeus torrent



Download torrent: Magnet link Bookmark Torrent: Keeping Up With The Joneses (2016) 2160p 4K UHD x265 10 bits DTSHD-MA 7.1 -Zeus Download Keeping Up With The Joneses (2016) 2160p 4K UHD x265 10 bits DTSHD-MA 7.1 -Zeus torrent (magnet link)
Info hash: 3170C460CA4DD884E7104FD43593012A8292C652
Category: Categories > Movies torrents > Movies 4K torrents
Trackers:
18    View all torrent trackers >
Health:
 seeds: 8 ,  leechers: 15 |  Update >
Torrent language:  
Total Size: 54.99 GB
Torrent status: Added by trusted uploader Added by trusted uploader Trusted Uploader Site Friend Superman Sun
Uploader: Trusted Uploader Site Friend Superman Sun
 

Download Keeping Up With The Joneses (2016) 2160p 4K UHD x265 10 bits DTSHD-MA 7.1 -Zeus via Magnet Link




Torrent Description





2160p 4K UltraHD  BluRay Rip
HEVC 10 Bits BT709

English DTSHD 7.1 Audio
French DDS 5.1 Audio

English French Portuguese Spanish Subs

SCREENSHOTS


SPECS


Source : 4K UHD BluRay
Format                                   : Matroska
File size                                : 54.7 GiB
Duration                                 : 1 h 45 min
Overall bit rate                         : 74.2 Mb/s

Video
Format                                   : HEVC
Format profile                           : Main [email protected]@Main
Bit rate                                 : 69.4 Mb/s
Width                                    : 3 840 pixels
Height                                   : 2 160 pixels
Display aspect ratio                     : 16:9
Frame rate                               : 23.976 (24000/1001) FPS
Bit depth                                : 10 bits
Stream size                              : 51.2 GiB (93%)
Color primaries                          : BT.709

Audio #1
Format                                   : DTSHD MA 7.1
Bit rate                                 : 4 309 kb/s / 1 509 kb/s / 1 509 kb/s
Channel(s)                               : 8 channels
Bit depth                                : 24 bits
Stream size                              : 3.17 GiB (6%)
Language                                 : English

Audio #2
Format                                   : AC-3
Bit rate                                 : 448 kb/s
Channel(s)                               : 6 channels
Language                                 : French

Chapters                                 : YES

SAMPLE Included



A Zeus Exclusive Encode






#Zeus -> To avoid fakes, ALWAYS check that the torrent was added on zduc.us by Zeus

http://zduc.us/




Comments (please add your comment)
No comments



Home - Browse Torrents - Upload Torrent - Stat - Forum - FAQ - Login
zduc.us is in compliance with copyrights
2006-2018 zduc.us
Mando ps4 v2 | Travis Willingham | Game of Thrones S06E10 The Winds of Winter REPACK WEB-DL DD5 1 H264-LoTV[rartv]