zduc.us - The Largest Bittorent System Login   |    Register
Latest Articles
Most searched
Hot torrents
Movie Torrents
View Torrent Info: The Girl in the Spider's Web (2018) [720p] [YTS] [YIFY]
View Torrent Info: The Nutcracker and the Four Realms (2018) [720p] [YTS] [YIFY]
View Torrent Info: Close (2019) [720p] [YTS] [YIFY]
View Torrent Info: IO (2019) [720p] [YTS] [YIFY]
View Torrent Info: Cinderella and the Secret Prince (2018) [720p] [YTS] [YIFY]
View Torrent Info: The Last Man (2018) [720p] [YTS] [YIFY]
View Torrent Info: The Legend of Secret Pass (2019) [720p] [YTS] [YIFY]
View Torrent Info: Indivisible (2018) [720p] [YTS] [YIFY]
View Torrent Info: Detective Dee: The Four Heavenly Kings (2018) [720p] [YTS] [YIFY]
View Torrent Info: An Acceptable Loss (2018) [720p] [YTS] [YIFY]
Hot torrents
TV Torrents
View Torrent Info: The.Big.Bang.Theory.S12E13.HDTV.x264-KILLERS[eztv]
View Torrent Info: The.Flash.2014.S05E10.HDTV.x264-SVA[eztv]
View Torrent Info: Arrow.S07E10.HDTV.x264-SVA[eztv]
View Torrent Info: Supergirl.S04E10.HDTV.x264-SVA[eztv]
View Torrent Info: The.Blacklist.S06E04.HDTV.x264-BATV[eztv]
View Torrent Info: lethal.weapon.s03e12.web.x264-tbs[eztv]
View Torrent Info: The.Good.Doctor.S02E12.HDTV.x264-KILLERS[eztv]
View Torrent Info: Supernatural.S14E10.HDTV.x264-SVA[eztv]
View Torrent Info: Greys.Anatomy.S15E09.HDTV.x264-KILLERS[eztv]
View Torrent Info: Manifest.S01E12.HDTV.x264-SVA[eztv]
zduc.us > Categories > Movies torrents > Dubbed /Dual Audio torrents


Browse Movies torrents

The Parent Trap (1998) 1080p 10bit WEBRip x265 HEVC [Org DD+ 2.0 Hindi + DD 5.1 English] ESubs ~ Jitu torrent



Download torrent: Download The Parent Trap (1998) 1080p 10bit WEBRip x265 HEVC [Org DD+ 2.0 Hindi + DD 5.1 English] ESubs ~ Jitu torrent Magnet link Bookmark Torrent: The Parent Trap (1998) 1080p 10bit WEBRip x265 HEVC [Org DD+ 2.0 Hindi + DD 5.1 English] ESubs ~ Jitu The Parent Trap (1998) 1080p 10bit WEBRip x265 HEVC [Org DD+ 2.0 Hindi + DD 5.1 English] ESubs ~ Jitu torrent | if not working, try instead: Magnet Link
Info hash: C3F7434E55B91E578E53B241FAEBAF185299CE0E
Category: Categories > Movies torrents > Dubbed /Dual Audio torrents
Trackers:
7    View all torrent trackers >
Health:
 seeds: 0 ,  leechers: 0 |  Update >
Total Size: 2.50 GB
Torrent status: Added by trusted uploader Added by trusted uploader Trusted Uploader Site Friend Superman Sun
Uploader: Trusted Uploader Site Friend Superman Sun
Torrent added: 2018-07-19 12:52:49
 

Download The Parent Trap (1998) 1080p 10bit WEBRip x265 HEVC [Org DD+ 2.0 Hindi + DD 5.1 English] ESubs ~ Jitu torrent if not working, try downloading torrent using Download The Parent Trap (1998) 1080p 10bit WEBRip x265 HEVC [Org DD+ 2.0 Hindi + DD 5.1 English] ESubs ~ Jitu via Magnet Link




Torrent Description






Twice the Fun, Double the Trouble....




The Parent Trap (1998) 1080p 10bit WEBRip x265 HEVC [Org DD+ 2.0 Hindi + DD 5.1 English] ESubs ~ Jitu


Org Untouched DD+ 2.0 128Kbps Hindi Audio By Hammer {Thanks}




Code:

Format                                   : Matroska
Format version                           : Version 4 / Version 2
File size                                : 2.49 GiB
Duration                                 : 2 h 5 min
Overall bit rate                         : 2 846 kb/s

Video
ID                                       : 1
Format                                   : HEVC
Format/Info                              : High Efficiency Video Coding
Format profile                           : Main [email protected]@Main
Codec ID                                 : V_MPEGH/ISO/HEVC
Duration                                 : 2 h 5 min
Bit rate                                 : 2 437 kb/s
Width                                    : 1 920 pixels
Height                                   : 1 040 pixels
Display aspect ratio                     : 1.85:1
Frame rate mode                          : Constant
Frame rate                               : 23.976 (24000/1001) FPS
Color space                              : YUV
Chroma subsampling                       : 4:2:0
Bit depth                                : 10 bits
Bits/(Pixel*Frame)                       : 0.051
Stream size                              : 2.13 GiB (86%)
Default                                  : Yes
Forced                                   : No
Color range                              : Limited
Color primaries                          : BT.709
Transfer characteristics                 : BT.709
Matrix coefficients                      : BT.709
FromStats_BitRate                        : 2501596
FromStats_Duration                       : 02:04:40.515000000
FromStats_FrameCount                     : 179353
FromStats_StreamSize                     : 2339154060

Audio #1
ID                                       : 2
Format                                   : E-AC-3
Format/Info                              : Enhanced Audio Coding 3
Codec ID                                 : A_EAC3
Duration                                 : 2 h 5 min
Bit rate mode                            : Constant
Bit rate                                 : 128 kb/s
Channel(s)                               : 2 channels
Channel positions                        : Front: L R
Sampling rate                            : 48.0 kHz
Frame rate                               : 187.500 FPS (256 SPF)
Compression mode                         : Lossy
Delay relative to video                  : 186 ms
Stream size                              : 115 MiB (4%)
Title                                    : Org DD+ 2.0 128Kbps ~ Jitu
Language                                 : Hindi
Service kind                             : Complete Main
Default                                  : Yes
Forced                                   : Yes
FromStats_BitRate                        : 128000
FromStats_Duration                       : 02:05:08.576000000
FromStats_FrameCount                     : 234643
FromStats_StreamSize                     : 120137216

Audio #2
ID                                       : 3
Format                                   : AC-3
Format/Info                              : Audio Coding 3
Codec ID                                 : A_AC3
Duration                                 : 2 h 5 min
Bit rate mode                            : Constant
Bit rate                                 : 224 kb/s
Channel(s)                               : 6 channels
Channel positions                        : Front: L C R, Side: L R, LFE
Sampling rate                            : 48.0 kHz
Frame rate                               : 31.250 FPS (1536 SPF)
Bit depth                                : 16 bits
Compression mode                         : Lossy
Stream size                              : 201 MiB (8%)
Language                                 : English
Service kind                             : Complete Main
Default                                  : No
Forced                                   : No
FromStats_BitRate                        : 224000
FromStats_Duration                       : 02:04:40.288000000
FromStats_FrameCount                     : 233759
FromStats_StreamSize                     : 209448064

Text
ID                                       : 4
Format                                   : ASS
Codec ID                                 : S_TEXT/ASS
Codec ID/Info                            : Advanced Sub Station Alpha
Compression mode                         : Lossless
Title                                    : Eng Sub
Language                                 : English
Default                                  : Yes
Forced                                   : Yes
Statistics Tags Issue                    : mkvmerge v25.0.0 ('Prog Noir') 64-bit 2018-07-19 08:05:35 / mkvmerge v25.0.0 ('Prog Noir') 64-bit 2018-07-19 08:05:35 / UTC 2018-03-16T00:16:57Z
FromStats_BitRate                        : 111
FromStats_Duration                       : 02:00:07.099000000
FromStats_FrameCount                     : 1717
FromStats_StreamSize                     : 100078



















#McuDudeS -> To avoid fakes, ALWAYS check that the torrent was added on zduc.us by McuDudeS

http://zduc.us/



Download The Parent Trap (1998) 1080p 10bit WEBRip x265 HEVC [Org DD+ 2.0 Hindi + DD 5.1 English] ESubs ~ Jitu torrent


Comments (please add your comment)
No comments



Home - Browse Torrents - Upload Torrent - Stat - Forum - FAQ - Login
zduc.us is in compliance with copyrights
2006-2018 zduc.us
Angry Birds (79) | The Dark Tower (2017) [1080p] English | White Boy Rick